Ticket #7536 (closed Bugs: Can not replicate)

Opened 5 years ago

Last modified 5 years ago

video corruption with ff-wmv3_vdpau

Reported by: TREX6662k5 Owned by:
Priority: 4 - Normal Milestone:
Component: Video playback (inc. audio in video and codecs) Version: GIT
Severity: Normal Keywords:
Cc: Blocked By:
Blocking: Platform: Linux
Revision: r24206

Description

Ubuntu Hardy x86, xbmc r24206

Playing WMV3 using VDPAU causes blocks to appear on the video, colours don't look right too. Disabling bicubic upscaling or playing around with studio colour conversion doesn't effect the video.

Switching to GLSL fixes this problem and provides a clear image. ah

Attachments

screenshot000.png Download (483.6 KB) - added by TREX6662k5 5 years ago.
xbmc.log Download (133.8 KB) - added by TREX6662k5 5 years ago.

Change History

Changed 5 years ago by TREX6662k5

Changed 5 years ago by TREX6662k5

comment:1 Changed 5 years ago by TREX6662k5

Just to also add, the video is hard subbed.

comment:2 Changed 5 years ago by Zeron

Maybe related to r24204É Perhaps try reverting thatÉ

comment:3 Changed 5 years ago by TREX6662k5

I was previously running an older revision, I can't remember which one it was but it was definitely older than r24204

comment:4 Changed 5 years ago by TREX6662k5

Mediainfo output if it helps.

General Complete name : Z:\Movies\Anime\SD\Full Metal Panic\Series 1\Full_Metal_Panic_01.DVD(AAC)[KAA][3A5B517F].avi Format : AVI Format/Info : Audio Video Interleave Format settings : rec File size : 223 MiB Duration : 22mn 49s Overall bit rate : 1 364 Kbps

Video Format : VC-1 Codec ID : WMV3 Codec ID/Info : Windows Media Video 9 Codec ID/Hint : WMV3 Duration : 22mn 49s Bit rate : 1 226 Kbps Width : 640 pixels Height : 480 pixels Display aspect ratio : 4:3 Frame rate : 23.976 fps Resolution : 24 bits Bits/(Pixel*Frame) : 0.166 Stream size : 200 MiB (90%)

Audio ID : 1 Format : AAC Format/Info : Advanced Audio Codec Format version : Version 4 Format profile : LC Format settings, SBR : No Codec ID : FF Duration : 22mn 49s Bit rate : 124 Kbps Channel(s) : 2 channels Channel positions : L R Sampling rate : 48.0 KHz Resolution : 16 bits Stream size : 20.3 MiB (9%) Alignment : Split accross interleaves Interleave, duration : 21 ms (0.51 video frame) Interleave, preload duration : 516 ms Title : fmp1 AC3 T01 2_0ch 224Kbps DELAY 0ms

comment:5 Changed 5 years ago by TREX6662k5

Updated to external-ffmpeg r20469 and the corruption is still there.

comment:6 Changed 5 years ago by malloc

Please retest with the latest version.

comment:7 Changed 5 years ago by TREX6662k5

I can't I'm afraid. I don't have the files any more.

comment:8 Changed 5 years ago by malloc

  • Status changed from new to closed
  • Resolution set to Can not replicate
  • Milestone Future / Pending deleted
Note: See TracTickets for help on using tickets.